<svg xmlns="http://www.w3.org/2000/svg">
<defs>
<font
   id="FontID0"
   horiz-adv-x="722"
   font-variant="normal"
   font-style="normal"
   font-weight="400,700"
   horiz-origin-x="0"
   horiz-origin-y="0"
   vert-origin-x="45"
   vert-origin-y="90"
   vert-adv-y="90"
   style="font-style:normal;font-variant:normal"><font-face
     font-family="Arial"
     id="font-face7" /><missing-glyph
     id="missing-glyph9"><path
       d="M0 0z"
       id="path11" /></missing-glyph><glyph
     unicode="D"
     horiz-adv-x="722"
     id="glyph13"><path
       d="M73.0187 716.02l263.634 0c59.4908,0 104.868,-4.52706 136.025,-13.6877 41.8087,-12.3562 77.8121,-34.3524 107.637,-65.9885 30.0383,-31.5296 52.6736,-70.196 68.3319,-115.999 15.4985,-45.6966 23.3277,-102.205 23.3277,-169.152 0,-59.0115 -7.29655,-109.715 -21.9962,-152.375 -17.7887,-52.141 -43.3,-94.3225 -76.4806,-126.491 -24.9787,-24.4994 -58.8517,-43.513 -101.353,-57.1474 -31.7959,-10.1726 -74.297,-15.179 -127.663,-15.179l-271.464 0 0 716.02zm144.972 -121.006l0 -474.009 107.531 0c40.1576,0 69.1308,2.34342 86.9727,6.81721 23.4874,5.85854 42.8206,15.8181 58.1594,29.8253 15.4985,14.0072 28.0145,37.0153 37.6545,69.0243 9.853,32.0089 14.6996,75.8415 14.6996,131.178 0,55.3366 -4.84661,97.6246 -14.6996,127.29 -9.63997,29.7188 -23.3277,52.6736 -40.7968,69.3438 -17.5224,16.5104 -39.6783,27.8547 -66.6809,33.66 -19.9723,4.52706 -59.4908,6.87047 -118.183,6.87047l-64.657 0z"
       id="path15" /></glyph><glyph
     unicode="f"
     horiz-adv-x="332"
     id="glyph17"><path
       d="M11.9834 519.014l76.0013 0 0 39.1457c0,43.6728 4.68683,76.3208 14.0072,97.8377 9.32041,21.6766 26.5232,39.1457 51.5019,52.6736 25.1917,13.4746 56.8279,20.3451 95.1747,20.3451 39.1457,0 77.6523,-5.85854 115.307,-17.5224l-17.4691 -95.3345c-22.3157,5.16617 -43.8326,7.82914 -64.4972,7.82914 -20.3451,0 -34.8317,-4.63357 -43.6728,-14.0072 -8.84107,-9.32041 -13.3149,-27.3221 -13.3149,-54.0051l0 -36.9621 103.004 0 0 -108.01 -103.004 0 0 -411.003 -137.037 0 0 411.003 -76.0013 0 0 108.01z"
       id="path19" /></glyph><glyph
     unicode="w"
     horiz-adv-x="722"
     id="glyph21"><path
       d="M159.336 0l-156.825 519.005 91.9905 0 82.8436 -299.526 29.3365 -111.469c1.13744,5.49763 10.1422,41.1374 26.8246,106.967l82.1801 304.028 90.1422 0 78.1517 -301.327 25.4976 -98.8626 29.8578 100.19 89.6682 300 85.4976 0 -162.844 -519.005 -90.9953 0 -82.3223 310.521 -20.8531 88.8152 -104.976 -399.336 -93.1754 0z"
       id="path23" /></glyph><glyph
     unicode="3"
     horiz-adv-x="556"
     id="glyph25"><path
       d="M41.994 190.006l87.9971 11.9867c10.1644,-50.0121 27.1726,-85.9723 51.3485,-108.002 24.1759,-21.9891 53.8187,-33.004 89.0095,-33.004 41.67,0 76.8203,14.3355 105.167,43.0064 28.3065,28.6709 42.48,64.1856 42.48,106.504 0,40.3337 -13.1611,73.6616 -39.6453,99.9838 -26.3627,26.2007 -59.8526,39.3618 -100.672,39.3618 -16.6842,0 -37.337,-3.36114 -62.1608,-9.84045l9.79995 76.9823c5.83138,-0.647931 10.6909,-0.971896 14.1735,-0.971896 37.661,0 71.3534,9.84045 101.523,29.3189 29.9668,19.5189 44.9907,49.4857 44.9907,90.0219 0,32.1536 -11.0148,58.7997 -32.842,79.9789 -21.8272,21.1792 -50.0121,31.6676 -84.5145,31.6676 -34.2998,0 -62.8088,-10.8528 -85.6483,-32.518 -22.8396,-21.6652 -37.499,-54.1427 -44.0188,-97.4731l-87.9971 15.9958c10.8528,59.0022 35.1907,104.843 73.3377,137.321 38.0254,32.518 85.5268,48.6758 142.18,48.6758 38.9973,0 74.998,-8.34211 107.84,-25.1478 33.004,-16.6842 58.1518,-39.5238 75.4839,-68.3567 17.4941,-28.9949 26.1602,-59.6501 26.1602,-92.1681 0,-30.8172 -8.30161,-58.8402 -24.8238,-84.15 -16.6437,-25.3503 -41.3461,-45.5171 -73.8236,-60.5005 42.318,-9.67846 75.16,-30.0073 98.6474,-60.8245 23.366,-30.6957 35.0288,-69.3691 35.0288,-115.534 0,-62.4848 -22.8396,-115.656 -68.3567,-159.148 -45.6386,-43.4923 -103.345,-65.1575 -172.997,-65.1575 -62.8088,0 -115.008,18.8305 -156.475,56.3295 -41.67,37.499 -65.36,85.9723 -71.1914,145.663z"
       id="path27" /></glyph><glyph
     unicode="0"
     horiz-adv-x="556"
     id="glyph29"><path
       d="M41.994 353.325c0,84.5145 8.66607,152.831 25.9982,204.503 17.4941,51.8345 43.3304,91.6822 77.6707,119.503 34.1783,27.8205 77.3467,41.67 129.343,41.67 38.3089,0 72.0013,-7.65368 101.158,-23.1635 28.9949,-15.5098 53.0088,-37.823 71.6773,-67.0203 18.6685,-28.9949 33.3279,-64.4691 43.9783,-106.301 10.8528,-41.832 16.1983,-98.364 16.1983,-169.191 0,-83.988 -8.66607,-151.98 -25.8362,-203.653 -17.1702,-51.8345 -43.0064,-91.6822 -77.3467,-119.665 -34.1783,-28.023 -77.5087,-41.994 -129.829,-41.994 -68.8426,0 -123.026,24.4999 -162.347,73.6616 -47.1775,59.9741 -70.6649,157.164 -70.6649,291.65zm90.0219 -0.323965c0,-117.842 13.647,-196.161 41.1436,-234.834 27.4966,-38.8353 61.5129,-58.1518 101.847,-58.1518 40.3337,0 74.3095,19.4784 101.847,58.3138 27.4966,38.9973 41.1436,117.154 41.1436,234.672 0,117.842 -13.647,196.161 -41.1436,234.834 -27.3346,38.8353 -61.6749,58.1518 -102.859,58.1518 -40.3337,0 -72.6492,-17.1702 -96.8251,-51.308 -30.1693,-43.4923 -45.1527,-124.16 -45.1527,-241.678z"
       id="path31" /></glyph><glyph
     unicode="c"
     horiz-adv-x="500"
     id="glyph33"><path
       d="M404.997 190.006l86.0128 -11.9867c-9.51648,-59.2047 -33.4899,-105.37 -72.3253,-138.86 -38.8353,-33.4899 -86.7012,-50.1741 -143.193,-50.1741 -70.8269,0 -127.845,23.1635 -170.811,69.5311 -43.1684,46.327 -64.6716,112.659 -64.6716,198.996 0,56.0055 9.314,104.803 27.8205,146.837 18.5065,41.832 46.651,73.3377 84.6764,94.1524 37.823,21.0173 79.007,31.5056 123.674,31.5056 56.1675,0 102.333,-14.1735 137.969,-42.6824 35.8387,-28.5089 58.8402,-69.0046 68.8426,-121.325l-85.0004 -12.9991c-8.13963,34.8263 -22.4751,60.9865 -43.3304,78.6831 -20.6528,17.4941 -45.6791,26.3222 -74.998,26.3222 -44.3428,0 -80.3434,-15.8338 -108.164,-47.5014 -27.6585,-31.8296 -41.5081,-81.8417 -41.5081,-150.522 0,-69.6525 13.3231,-120.151 40.0097,-151.656 26.8486,-31.5056 61.6749,-47.3394 104.519,-47.3394 34.6643,0 63.4972,10.5289 86.4987,31.6676 23.1635,21.0173 37.823,53.4948 43.9783,97.3516z"
       id="path35" /></glyph><glyph
     unicode="t"
     horiz-adv-x="277"
     id="glyph37"><path
       d="M256.986 78.4806l12.0272 -77.6302c-24.6619,-5.18345 -46.8535,-7.85616 -66.1699,-7.85616 -31.8296,0 -56.4915,5.02146 -74.1881,15.1859 -17.4941,10.1644 -29.8048,23.3255 -36.9725,39.8072 -7.16773,16.5222 -10.6909,51.1865 -10.6909,103.993l0 299.02 -64.9955 0 0 67.9922 64.9955 0 0 128.331 87.9971 52.8468 0 -181.178 87.9971 0 0 -67.9922 -87.9971 0 0 -304.001c0,-25.1478 1.49834,-41.3461 4.6975,-48.5138 2.99668,-7.16773 7.97765,-12.8371 14.9834,-17.1702 7.00575,-4.13056 17.0082,-6.31732 30.0073,-6.31732 9.63797,0 22.4751,1.17437 38.3089,3.48263z"
       id="path39" /></glyph><glyph
     unicode="R"
     horiz-adv-x="722"
     id="glyph41"><path
       d="M73.0075 0l0 715.993 304.481 0c76.5031,0 132.166,-6.49178 166.855,-19.3422 34.8226,-12.8171 62.4875,-35.6548 83.3278,-68.4799 20.8403,-32.9915 31.327,-70.5107 31.327,-112.824 0,-53.8318 -15.6801,-98.1756 -47.1736,-133.165 -31.4934,-35.0223 -78.5006,-57.0278 -141.155,-66.1828 31.1605,-18.177 56.828,-38.1517 77.0025,-59.9907 20.3409,-21.839 47.6729,-60.6898 81.9961,-116.353l87.3227 -139.656 -172.814 0 -103.669 156.335c-37.1862,55.4964 -62.6873,90.4854 -76.5031,105 -13.6827,14.3152 -28.1643,24.3358 -43.5116,29.6624 -15.4804,5.32659 -39.8162,7.98988 -73.174,7.98988l-29.3295 0 0 -298.988 -144.983 0zm144.983 413.01l106.998 0c69.3455,0 112.524,2.9962 129.836,8.82216 17.1782,5.82595 30.8276,16.0131 40.5153,30.3283 9.82089,14.3485 14.6481,32.3257 14.6481,53.8318 0,24.1694 -6.49178,43.5116 -19.3089,58.4926 -12.8504,14.8479 -31.0274,24.1694 -54.3312,28.0312 -11.8517,1.66456 -47.0071,2.49684 -105.5,2.49684l-112.857 0 0 -182.003z"
       id="path43" /></glyph><glyph
     unicode="A"
     horiz-adv-x="722"
     id="glyph45"><path
       d="M717.991 0l-156.169 0 -61.8217 162.994 -287.17 0 -59.4913 -162.994 -153.339 0 278.015 715.993 153.139 0 286.837 -715.993zm-264.998 284.007l-99.5073 264.998 -96.6443 -264.998 196.152 0z"
       id="path47" /></glyph><glyph
     unicode="-"
     horiz-adv-x="333"
     id="glyph49"><path
       d="M30.989 214.98l0 88.0298 272.021 0 0 -88.0298 -272.021 0z"
       id="path51" /></glyph><glyph
     unicode="O"
     horiz-adv-x="777"
     id="glyph53"><path
       d="M42.9804 353.643c0,73.0187 11.0247,134.374 32.8611,184.012 16.1376,36.536 38.5066,69.3438 66.6809,98.3703 28.121,28.9732 58.9582,50.49 92.4585,64.657 44.6847,18.8006 96.1866,28.334 154.506,28.334 105.667,0 190.03,-32.8611 253.515,-98.3703 63.3255,-65.6689 95.0149,-156.796 95.0149,-273.647 0,-115.839 -31.5296,-206.487 -94.3758,-271.836 -62.7929,-65.5092 -146.996,-98.1572 -252.13,-98.1572 -106.519,0 -191.361,32.4883 -254.154,97.6779 -62.8462,64.9766 -94.3758,154.666 -94.3758,268.96zm149.02 4.84661c0,-81.1674 18.8539,-142.682 56.3485,-184.651 37.4947,-41.862 85.1619,-62.8462 142.842,-62.8462 57.7865,0 105.134,20.8245 142.309,62.3669 37.0153,41.6489 55.4964,103.963 55.4964,187.154 0,82.1794 -18.0017,143.481 -54.1649,183.798 -36.0034,40.5305 -83.8304,60.6625 -143.641,60.6625 -59.7039,0 -107.85,-20.4516 -144.333,-61.3017 -36.536,-41.0098 -54.8573,-102.684 -54.8573,-185.183z"
       id="path55" /></glyph><glyph
     unicode="n"
     horiz-adv-x="556"
     id="glyph57"><path
       d="M65.9885 0l0 519.014 79.0371 0 0 -73.6579c37.974,56.455 92.9911,84.6293 164.785,84.6293 31.3698,0 60.0234,-5.6455 86.1738,-16.83 26.2037,-11.1312 45.8564,-25.9906 58.8517,-44.1521 12.9953,-18.1615 22.1559,-39.8381 27.3221,-64.8168 3.19557,-16.3507 4.84661,-44.8445 4.84661,-85.5347l0 -318.651 -87.9847 0 0 315.349c0,35.8436 -3.35535,62.6331 -10.1726,80.3153 -6.87047,17.6821 -19.0136,31.8492 -36.323,42.5011 -17.3626,10.4921 -37.8675,15.8181 -61.1951,15.8181 -37.3349,0 -69.5036,-11.8236 -96.666,-35.6306 -27.1623,-23.7005 -40.637,-68.8645 -40.637,-135.173l0 -283.181 -88.0379 0z"
       id="path59" /></glyph><glyph
     unicode="L"
     horiz-adv-x="610"
     id="glyph61"><path
       d="M77.0025 0l0 710.001 144.983 0 0 -588.987 359.012 0 0 -121.013 -503.995 0z"
       id="path63" /></glyph><glyph
     unicode="8"
     horiz-adv-x="556"
     id="glyph65"><path
       d="M177.514 388.155c-36.536,13.3681 -63.5386,32.4883 -81.1674,57.2007 -17.5224,24.8189 -26.3634,54.4844 -26.3634,88.9966 0,52.141 18.6941,95.8138 56.029,131.338 37.4947,35.4708 87.1325,53.3127 149.34,53.3127 62.3136,0 112.644,-18.1615 150.671,-54.4844 37.974,-36.3762 56.9876,-80.5283 56.9876,-132.669 0,-33.1807 -8.6813,-62.2071 -25.9906,-86.7064 -17.3626,-24.6591 -43.6728,-43.6195 -79.1968,-56.9876 43.8326,-14.3268 77.0132,-37.3349 99.8615,-69.3438 22.7951,-31.7959 34.2991,-69.8232 34.2991,-114.135 0,-61.1951 -21.6766,-112.484 -64.8168,-154.186 -43.3532,-41.6489 -100.181,-62.4734 -170.643,-62.4734 -70.5156,0 -127.343,20.8245 -170.697,62.6331 -43.1402,41.862 -64.8168,94.003 -64.8168,156.53 0,46.4955 11.8236,85.4815 35.4708,116.798 23.7005,31.5296 57.3605,52.8334 101.033,64.1777zm-17.5224 149.34c0,-33.9795 10.8649,-61.6745 32.3285,-83.138 21.6766,-21.5168 50.0107,-32.3818 85.1619,-32.3818 34.1926,0 61.8343,10.7052 83.3511,32.0089 21.5168,21.3571 32.1687,47.5075 32.1687,78.5045 0,32.3285 -11.0247,59.4908 -33.1807,81.487 -21.9962,22.0494 -49.7976,33.0209 -83.2978,33.0209 -33.873,0 -61.6745,-10.8117 -83.6706,-32.3285 -21.8364,-21.5168 -32.8611,-47.1879 -32.8611,-77.173zm-28.9732 -331.008c0,-25.1385 5.80528,-49.3183 17.4691,-72.8057 11.6638,-23.3277 29.346,-41.4891 52.9932,-54.3247 23.5407,-12.8355 48.8389,-19.3332 75.6817,-19.3332 42.3413,0 77.0132,13.4746 104.176,40.4772 27.1623,27.0026 40.637,61.3549 40.637,103.004 0,42.3413 -13.954,77.3328 -41.8087,104.974 -28.0145,27.6949 -63.3255,41.5424 -105.827,41.5424 -41.6489,0 -75.8415,-13.6877 -102.844,-41.0098 -27.0026,-27.3221 -40.4772,-61.5147 -40.4772,-102.524z"
       id="path67" /></glyph><glyph
     unicode="k"
     horiz-adv-x="500"
     id="glyph69"><path
       d="M66.3319 0l0 716.004 87.9971 0 0 -407.832 207.986 210.82 113.671 0 -197.983 -192.84 217.988 -326.152 -108.326 0 -172.35 265.166 -60.9865 -59.3262 0 -205.839 -87.9971 0z"
       id="path71" /></glyph><glyph
     unicode="I"
     horiz-adv-x="277"
     id="glyph73"><path
       d="M68.0138 0l0 715.993 144.983 0 0 -715.993 -144.983 0z"
       id="path75" /></glyph><glyph
     unicode="F"
     horiz-adv-x="610"
     id="glyph77"><path
       d="M82.0196 0l0 716.02 482.957 0 0 -84.0435 -387.995 0 0 -222.997 336.014 0 0 -83.9902 -336.014 0 0 -324.989 -94.9617 0z"
       id="path79" /></glyph><glyph
     unicode="5"
     horiz-adv-x="556"
     id="glyph81"><path
       d="M42.0217 188.006l91.9791 6.97699c6.81721,-44.7912 22.6885,-78.5045 47.3477,-101.14 24.6591,-22.5288 54.804,-33.8198 90.3281,-33.8198 42.8206,0 78.6643,15.9778 107.797,47.827 29.0264,32.0089 43.513,74.297 43.513,126.971 0,50.1704 -13.7942,89.689 -41.6489,118.662 -27.8547,29.0264 -64.657,43.513 -110.513,43.513 -28.4938,0 -54.0051,-6.49766 -76.6404,-19.493 -22.5288,-12.9953 -40.1576,-29.8253 -53.2062,-50.49l-82.9783 11.9834 69.0243 368.023 354.974 0 0 -84.0435 -284.832 0 -38.187 -193.119c42.8739,30.1449 87.8781,45.164 134.853,45.164 62.3136,0 114.987,-21.6766 157.808,-65.0298 42.8739,-43.3 64.3375,-99.0094 64.3375,-166.968 0,-64.87 -18.8006,-120.846 -56.455,-168.034 -45.8564,-57.9996 -108.543,-86.9727 -187.846,-86.9727 -65.0298,0 -118.023,18.3213 -159.193,54.804 -41.1696,36.536 -64.657,84.8424 -70.4623,145.185z"
       id="path83" /></glyph><glyph
     unicode="h"
     horiz-adv-x="556"
     id="glyph85"><path
       d="M66.0079 0l0 716.004 87.9971 0 0 -257.674c40.8196,47.8254 92.3301,71.6773 154.653,71.6773 38.1874,0 71.3534,-7.4917 99.6598,-22.6776 28.185,-15.1454 48.3518,-36.0006 60.5005,-62.6468 12.1892,-26.6866 18.1826,-65.522 18.1826,-116.182l0 -328.501 -87.9971 0 0 328.177c0,43.8163 -9.51648,75.8079 -28.347,95.8127 -18.9925,20.0049 -45.6386,30.0073 -80.3434,30.0073 -25.7957,0 -50.1336,-6.68179 -72.9732,-20.1668 -22.8396,-13.4851 -38.9973,-31.8296 -48.8378,-54.9931 -9.67846,-23.0015 -14.4974,-54.8311 -14.4974,-95.4888l0 -283.348 -87.9971 0z"
       id="path87" /></glyph><glyph
     unicode="W"
     horiz-adv-x="943"
     id="glyph89"><path
       d="M171.35 0l-168.353 715.993 149.011 0 106.498 -491.81 130.668 491.81 172.315 0 125.008 -500.166 108.995 500.166 145.516 0 -172.515 -715.993 -154.837 0 -141.155 535.322 -142.153 -535.322 -158.999 0z"
       id="path91" /></glyph><glyph
     unicode="v"
     horiz-adv-x="500"
     id="glyph93"><path
       d="M207.818 0l-195.835 519.014 94.1628 0 111.046 -310.822c11.9834,-33.5002 23.1146,-68.3319 33.2872,-104.548 7.82914,27.3754 18.6941,60.1832 32.8611,98.6898l115.307 316.681 90.3281 0 -196.474 -519.014 -84.6826 0z"
       id="path95" /></glyph><glyph
     unicode="C"
     horiz-adv-x="722"
     id="glyph97"><path
       d="M530.997 264.007l140.019 -43.0337c-21.5168,-78.824 -57.3605,-137.303 -107.371,-175.65 -49.9574,-38.1338 -113.336,-57.3072 -190.136,-57.3072 -95.1747,0 -173.36,32.4883 -234.661,97.4648 -61.1951,65.0298 -91.8726,153.867 -91.8726,266.67 0,119.195 30.8372,211.866 92.3519,277.855 61.5147,65.9885 142.522,99.0094 242.863,99.0094 87.6651,0 158.82,-25.9906 213.464,-77.8654 32.7013,-30.6242 56.9876,-74.6698 73.3383,-132.137l-143.002 -34.0328c-8.46826,37.0153 -26.1504,66.3613 -52.9932,87.8781 -27.0026,21.4636 -59.6506,32.1155 -97.9974,32.1155 -53.153,0 -96.3464,-18.9604 -129.314,-57.1474 -33.1807,-37.974 -49.6911,-99.6485 -49.6911,-184.97 0,-90.3813 16.3507,-154.879 48.8389,-193.172 32.6481,-38.5066 74.9893,-57.68 127.184,-57.68 38.5066,0 71.634,12.1432 99.3289,36.6425 27.6417,24.4994 47.6672,62.8462 59.6506,115.36z"
       id="path99" /></glyph><glyph
     unicode="2"
     horiz-adv-x="556"
     id="glyph101"><path
       d="M502.997 83.988l0 -83.988 -474.002 0c-0.647931,21.1792 2.8347,41.5081 10.3264,61.1485 12.1892,32.1941 31.6676,64.0236 58.5162,95.1648 26.8486,31.1817 65.1575,67.1823 115.008,108.002 77.4682,63.8617 130.153,114.36 157.65,151.697 27.6585,37.337 41.5081,72.6492 41.5081,105.977 0,34.8263 -12.5132,64.1856 -37.499,88.1591 -24.9858,23.8519 -57.6658,35.8387 -97.8375,35.8387 -42.48,0 -76.4963,-12.6346 -102.009,-37.9849 -25.4718,-25.1883 -38.3089,-60.1766 -38.6734,-105.005l-89.9814 8.99004c6.15534,67.3443 29.4808,118.693 69.8145,154.005 40.4957,35.3527 94.6789,53.0088 162.833,53.0088 68.6807,0 123.188,-18.9925 163.198,-57.1799 40.1717,-38.1469 60.1361,-85.4864 60.1361,-141.816 0,-28.6709 -5.83138,-56.8559 -17.6561,-84.5145 -11.6628,-27.8205 -31.1817,-56.9774 -58.3138,-87.6731 -27.3346,-30.4932 -72.5277,-72.6492 -135.499,-125.982 -52.8468,-44.3428 -86.8632,-74.35 -101.847,-90.1839 -14.9834,-15.8338 -27.3346,-31.6676 -37.175,-47.6634l351.502 0z"
       id="path103" /></glyph><glyph
     unicode="e"
     horiz-adv-x="556"
     id="glyph105"><path
       d="M419.981 168.017l91.0343 -12.0272c-14.1735,-52.8063 -40.6981,-93.9904 -79.331,-123.147 -38.6734,-29.1569 -87.9971,-43.8568 -148.174,-43.8568 -75.6864,0 -135.66,23.366 -180.003,70.017 -44.3428,46.489 -66.4939,112.011 -66.4939,196.161 0,86.9847 22.3131,154.653 67.1418,202.681 44.8287,48.1493 103.021,72.1633 174.496,72.1633 69.1666,0 125.699,-23.4875 169.515,-70.6649 43.8163,-47.1775 65.846,-113.509 65.846,-198.996 0,-5.18345 -0.161983,-12.9991 -0.526444,-23.366l-386.491 0c3.32064,-56.8154 19.3569,-100.47 48.3518,-130.639 28.8329,-30.1693 64.9955,-45.3551 108.164,-45.3551 32.1536,0 59.6501,8.50409 82.3277,25.5123 22.8396,17.0082 40.8196,44.1808 54.1427,81.5178zm-287.965 140.965l288.977 0c-3.80659,43.6948 -14.9834,76.3343 -33.166,98.202 -27.8205,33.8139 -64.1451,50.8221 -108.65,50.8221 -40.3337,0 -74.1881,-13.5256 -101.685,-40.4957 -27.3346,-27.0106 -42.48,-63.1732 -45.4766,-108.528z"
       id="path107" /></glyph><glyph
     unicode="T"
     horiz-adv-x="610"
     id="glyph109"><path
       d="M234.004 0l0 595.013 -211.998 0 0 120.98 567.981 0 0 -120.98 -210.999 0 0 -595.013 -144.983 0z"
       id="path111" /></glyph><glyph
     unicode="s"
     horiz-adv-x="500"
     id="glyph113"><path
       d="M31.0197 155.017l86.9847 13.971c4.81898,-34.8263 18.5065,-61.4724 40.8196,-80.1409 22.3536,-18.5065 53.6568,-27.861 93.6665,-27.861 40.4957,0 70.503,8.18012 90.1839,24.6619 19.4784,16.3602 29.3189,35.6767 29.3189,57.8683 0,19.8024 -8.82806,35.4742 -26.3222,46.813 -12.3512,7.85616 -42.318,17.6561 -90.0219,29.8453 -64.3071,16.1578 -108.812,30.1693 -133.798,41.994 -24.8643,11.9867 -43.6948,28.347 -56.532,49.3237 -12.8371,20.8553 -19.3164,44.0188 -19.3164,69.3286 0,23.1635 5.34543,44.5047 15.8338,64.1856 10.6504,19.6404 24.9858,36.0006 43.1684,48.9998 13.647,10.0024 32.3155,18.5065 55.8435,25.5123 23.6495,6.96525 48.8378,10.4884 75.8079,10.4884 40.6576,0 76.3343,-5.83138 107.03,-17.6561 30.8172,-11.7032 53.4948,-27.699 68.1542,-47.7039 14.4974,-20.1668 24.6619,-46.975 30.1693,-80.6674l-86.0128 -11.9867c-3.84709,27.0106 -15.1454,48.1898 -33.8139,63.3352 -18.6685,15.1859 -45.0312,22.6776 -79.169,22.6776 -40.1717,0 -69.0046,-6.68179 -86.1748,-20.0049 -17.1702,-13.3231 -25.8362,-28.9949 -25.8362,-46.8535 0,-11.2983 3.48263,-21.6652 10.6504,-30.8172 7.16773,-9.314 18.3445,-17.1702 33.6924,-23.3255 8.82806,-3.32064 34.5023,-10.8528 77.4682,-22.5156 61.9989,-16.4817 105.37,-30.1693 130.032,-40.6576 24.6619,-10.4884 43.9783,-25.9982 57.9898,-46.0031 14.1735,-20.1668 21.1792,-45.1527 21.1792,-75.16 0,-29.1569 -8.50409,-56.6534 -25.6743,-82.4897 -17.1702,-25.8362 -41.832,-45.8411 -74.0261,-60.0146 -32.3155,-14.1735 -68.8021,-21.1792 -109.5,-21.1792 -67.3038,0 -118.814,14.0115 -154.167,41.832 -35.3122,28.023 -57.8278,69.3691 -67.6278,124.2z"
       id="path115" /></glyph><glyph
     unicode="@"
     horiz-adv-x="1015"
     id="glyph117"><path
       d="M569.005 80.1814c-21.1792,-24.4999 -44.8287,-44.1808 -71.1914,-59.0022 -26.1602,-14.8619 -52.4824,-22.1916 -78.8046,-22.1916 -28.9949,0 -57.1799,8.50409 -84.6764,25.3503 -27.3346,17.0082 -49.4857,43.0064 -66.6559,78.1566 -17.1702,35.1907 -25.6743,73.8236 -25.6743,115.858 0,51.794 13.3231,103.628 39.8477,155.665 26.4842,51.8345 59.4881,90.8318 98.8094,116.992 39.3213,25.9982 77.6707,38.9973 114.684,38.9973 28.3065,0 55.3171,-7.32972 81.1533,-22.1916 25.6743,-14.8214 47.8254,-37.499 66.3319,-67.6683l17.1702 75.8484 86.9847 0 -70.3005 -328.015c-9.84045,-45.6386 -14.6999,-70.8269 -14.6999,-75.6459 0,-8.82806 3.36114,-16.4817 10.0024,-22.8396 6.68179,-6.31732 14.8619,-9.47599 24.1759,-9.47599 17.3321,0 40.0097,9.79995 67.9922,29.6428 37.175,25.9982 66.6964,60.8245 88.3615,104.681 21.6652,43.6543 32.4775,88.645 32.4775,135.175 0,54.3047 -14.0115,104.965 -41.832,151.98 -27.8205,47.1775 -69.4906,84.8384 -124.808,113.185 -55.1956,28.1445 -116.344,42.318 -183.202,42.318 -76.3343,0 -146.149,-17.8181 -209.16,-53.3328 -63.1732,-35.6767 -112.173,-86.6607 -146.837,-153.155 -34.8263,-66.5344 -52.1584,-137.847 -52.1584,-214.02 0,-79.655 17.3321,-148.174 51.9964,-205.677 34.8263,-57.6658 85.0004,-100.146 150.684,-127.642 65.6435,-27.4966 138.333,-41.1841 218.15,-41.1841 85.5268,0 157.002,14.3355 214.668,43.1684 57.6658,28.6709 100.834,63.6592 129.505,104.843l87.9971 0c-16.6437,-34.1783 -45.1527,-69.1666 -85.4864,-104.681 -40.3337,-35.4742 -88.3615,-63.6592 -144.003,-84.312 -55.6815,-20.6933 -122.823,-31.0197 -201.182,-31.0197 -72.3253,0 -138.981,9.3545 -200.008,27.861 -61.1485,18.466 -113.145,46.327 -156.151,83.5021 -43.0064,37.2965 -75.3219,80.1409 -97.1491,128.493 -27.3346,61.4724 -41.0221,127.804 -41.0221,198.996 0,79.169 16.3602,154.815 48.8378,226.654 39.8477,87.9971 96.3392,155.503 169.515,202.357 73.1352,46.813 161.821,70.1385 266.138,70.1385 80.8698,0 153.519,-16.4817 217.867,-49.4857 64.3071,-33.004 115.17,-82.1657 152.142,-147.485 31.6676,-56.1675 47.5014,-117.356 47.5014,-183.364 0,-94.3144 -33.166,-177.978 -99.4979,-251.154 -59.3262,-65.684 -123.998,-98.4855 -194.339,-98.4855 -22.4751,0 -40.4957,3.48263 -54.3047,10.3264 -13.8495,6.84377 -24.0139,16.6437 -30.5337,29.4808 -4.33304,8.18012 -7.32972,22.3536 -9.314,42.3585zm-237.021 131.975c0,-44.6667 10.6909,-79.331 31.8701,-103.993 21.1387,-24.8238 45.3147,-37.175 72.8112,-37.175 18.1826,0 37.337,5.50741 57.6658,16.3602 20.1668,10.9743 39.4833,27.1321 57.8278,48.6353 18.5065,21.5032 33.4899,48.8378 45.1932,81.8417 11.8247,33.004 17.6561,66.1699 17.6561,99.4979 0,44.1808 -11.0148,78.6831 -33.004,103.021 -21.9891,24.4999 -48.8378,36.6486 -80.3434,36.6486 -20.8148,0 -40.4957,-5.34543 -59.0022,-15.8338 -18.3445,-10.6504 -36.1626,-27.6585 -53.4948,-51.146 -17.1702,-23.366 -31.1817,-51.8345 -41.5081,-85.5268 -10.4884,-33.4899 -15.6718,-64.3071 -15.6718,-92.3301z"
       id="path119" /></glyph><glyph
     unicode="b"
     horiz-adv-x="556"
     id="glyph121"><path
       d="M146.999 0l-82.0037 0 0 716.004 87.9971 0 0 -255.487c37.175,46.327 84.5145,69.4906 142.18,69.4906 31.8296,0 62.1608,-6.35782 90.6698,-19.1545 28.5089,-12.8371 51.8345,-31.0197 70.341,-54.1832 18.304,-23.3255 32.8015,-51.3485 43.1684,-84.15 10.4884,-32.68 15.6313,-67.8707 15.6313,-105.167 0,-88.6855 -21.9891,-157.366 -65.8055,-205.677 -44.0188,-48.5138 -96.6632,-72.6897 -158.176,-72.6897 -61.1485,0 -109.176,25.5123 -144.003,76.3343l0 -65.3195zm-1.01239 263.343c0,-61.9989 8.50409,-106.828 25.3503,-134.527 27.6585,-45.1527 64.9955,-67.8302 112.173,-67.8302 38.4709,0 71.6368,16.6842 99.4979,50.0121 27.9825,33.3279 41.994,83.0161 41.994,148.984 0,67.6683 -13.3231,117.518 -40.1717,149.672 -26.8486,32.1941 -59.3262,48.3518 -97.3111,48.3518 -38.5114,0 -71.6773,-16.6842 -99.5383,-50.0121 -27.9825,-33.3279 -41.994,-81.4773 -41.994,-144.651z"
       id="path123" /></glyph><glyph
     unicode="N"
     horiz-adv-x="722"
     id="glyph125"><path
       d="M73.0187 0l0 716.02 140.339 0 294.631 -479.868 0 479.868 134.001 0 0 -716.02 -144.813 0 -290.158 470.654 0 -470.654 -134.001 0z"
       id="path127" /></glyph><glyph
     unicode=","
     horiz-adv-x="277"
     id="glyph129"><path
       d="M88.9966 0l0 100.021 100.021 0 0 -100.021c0,-36.8556 -6.49766,-66.6809 -19.706,-89.3161 -12.9953,-22.6885 -33.8198,-40.3707 -62.3136,-52.6736l-24.02 37.974c18.6941,8.20196 32.3285,20.1853 41.0098,35.8436 8.84107,15.8181 13.8475,38.5066 14.8594,68.1721l-49.8509 0z"
       id="path131" /></glyph><glyph
     unicode="p"
     horiz-adv-x="556"
     id="glyph133"><path
       d="M66.0079 -198.996l0 717.988 79.9789 0 0 -68.1542c18.8305,26.3222 40.1717,46.1651 64.0236,59.3262 23.6495,13.1611 52.4824,19.8429 86.3368,19.8429 44.3023,0 83.2996,-11.3388 117.154,-34.1783 33.8139,-22.6776 59.3262,-54.8311 76.6583,-96.1772 17.1702,-41.4676 25.8362,-86.8227 25.8362,-136.308 0,-52.8468 -9.47599,-100.51 -28.5089,-142.99 -18.9925,-42.3585 -46.651,-74.836 -82.9756,-97.5136 -36.1626,-22.5156 -74.35,-33.8544 -114.36,-33.8544 -29.3189,0 -55.641,6.19584 -78.8046,18.5065 -23.366,12.3512 -42.3585,27.861 -57.3419,46.6915l0 -253.179 -87.9971 0zm79.9789 455.333c0,-66.4939 13.5256,-115.656 40.3337,-147.485 27.0106,-31.8701 59.6906,-47.8659 97.9995,-47.8659 38.9973,0 72.3658,16.5222 100.024,49.5262 27.8205,33.004 41.67,83.988 41.67,153.155 0,66.0079 -13.5256,115.332 -40.6981,148.174 -27.1321,32.842 -59.4881,49.1617 -97.1491,49.1617 -37.337,0 -70.341,-17.4941 -99.0119,-52.3204 -28.8329,-35.0288 -43.1684,-85.6888 -43.1684,-152.345z"
       id="path135" /></glyph><glyph
     unicode=":"
     horiz-adv-x="277"
     id="glyph137"><path
       d="M89.9814 419.009l0 99.9838 100.024 0 0 -99.9838 -100.024 0zm0 -419.009l0 99.9838 100.024 0 0 -99.9838 -100.024 0z"
       id="path139" /></glyph><glyph
     unicode="m"
     horiz-adv-x="832"
     id="glyph141"><path
       d="M66.0079 0l0 518.992 79.007 0 0 -73.3377c16.1578,25.3503 37.823,45.8411 64.8336,61.189 26.9701,15.4693 57.6658,23.1635 92.1681,23.1635 38.3089,0 69.8145,-8.01814 94.3144,-23.8519 24.4999,-15.9958 41.832,-38.1469 51.8345,-66.8179 41.3461,60.5005 94.8409,90.6698 160.849,90.6698 51.6725,0 91.4797,-14.1735 119.138,-42.6824 27.861,-28.5089 41.832,-72.3253 41.832,-131.489l0 -355.835 -87.9971 0 0 326.679c0,34.9883 -2.99668,60.3385 -8.66607,75.8079 -5.66939,15.5098 -15.9958,27.861 -31.1412,37.337 -15.0239,9.51648 -32.68,14.1735 -52.8468,14.1735 -36.6486,0 -67.0203,-12.1487 -91.1557,-36.3246 -24.1759,-24.3379 -36.1626,-63.1732 -36.1626,-116.506l0 -301.166 -87.9971 0 0 336.843c0,38.9973 -7.16773,68.3162 -21.5032,87.8351 -14.3355,19.4784 -37.8634,29.3189 -70.341,29.3189 -24.6619,0 -47.5014,-6.47931 -68.5187,-19.4784 -20.9768,-12.9991 -36.1626,-32.0321 -45.6386,-57.1799 -9.3545,-24.9858 -14.0115,-61.189 -14.0115,-108.326l0 -269.013 -87.9971 0z"
       id="path143" /></glyph><glyph
     unicode="K"
     horiz-adv-x="722"
     id="glyph145"><path
       d="M75.005 0l0 715.993 144.983 0 0 -317.165 292.163 317.165 194.354 0 -270.158 -278.814 284.14 -437.18 -186.996 0 -196.984 336.174 -116.519 -119.682 0 -216.492 -144.983 0z"
       id="path147" /></glyph><glyph
     unicode="7"
     horiz-adv-x="556"
     id="glyph149"><path
       d="M47.0155 622.985l0 84.0285 462.987 0 0 -68.0327c-45.5171,-48.4733 -90.8318,-112.983 -135.499,-193.488 -44.8287,-80.5054 -79.331,-163.319 -103.831,-248.481 -17.4941,-59.8526 -28.8329,-125.658 -33.6924,-197.011l-89.9814 0c1.01239,56.3295 11.9867,124.484 33.166,204.341 21.1792,79.9789 51.3485,157.002 90.8318,231.149 39.4833,74.1881 81.5178,136.673 126.023,187.495l-350.004 0z"
       id="path151" /></glyph><glyph
     unicode="j"
     horiz-adv-x="222"
     id="glyph153"><path
       d="M65.4815 613.995l0 102.009 88.0376 0 0 -102.009 -88.0376 0zm-111.323 -814.651l16.1578 74.4715c17.6966,-4.49502 31.5056,-6.80327 41.67,-6.80327 18.0206,0 31.3436,5.99336 40.1717,17.8181 8.82806,11.8247 13.3231,41.67 13.3231,89.1715l0 544.991 88.0376 0 0 -546.813c0,-63.8617 -8.34211,-108.326 -25.0263,-133.352 -21.1792,-32.4775 -56.3295,-48.8378 -105.491,-48.8378 -23.8519,0 -46.651,3.15866 -68.8426,9.3545z"
       id="path155" /></glyph><glyph
     unicode="H"
     horiz-adv-x="722"
     id="glyph157"><path
       d="M73.0075 0l0 715.993 144.983 0 0 -282.009 282.009 0 0 282.009 145.016 0 0 -715.993 -145.016 0 0 313.004 -282.009 0 0 -313.004 -144.983 0z"
       id="path159" /></glyph><glyph
     unicode="V"
     horiz-adv-x="667"
     id="glyph161"><path
       d="M256.178 0l-256.178 716.02 156.689 0 181.828 -530.038 174.478 530.038 154.026 0 -254.687 -716.02 -156.157 0z"
       id="path163" /></glyph><glyph
     unicode="x"
     horiz-adv-x="500"
     id="glyph165"><path
       d="M6.01832 0l189.497 268.854 -175.49 250.16 108.117 0 82.0196 -122.497c15.179,-23.0081 27.1623,-41.7022 35.6839,-56.3485 14.8061,20.8245 27.9612,39.6783 39.8381,56.5083l86.3336 122.337 107.478 0 -176.502 -250.16 188.006 -268.854 -106.998 0 -107.318 159.991 -24.4994 38.5066 -138.688 -198.498 -107.478 0z"
       id="path167" /></glyph><glyph
     unicode="g"
     horiz-adv-x="556"
     id="glyph169"><path
       d="M49.8509 -42.9804l85.0021 -12.0366c3.46187,-26.3102 13.4746,-45.4836 29.8253,-57.6268 21.8364,-16.1909 51.6617,-24.3396 89.4759,-24.3396 40.6902,0 72.1666,8.1487 94.3225,24.3396 22.2092,16.1376 37.1751,38.9859 45.0043,68.1189 4.52706,17.8419 6.71069,55.3366 6.33788,112.537 -38.5066,-45.3238 -86.3336,-68.0124 -143.641,-68.0124 -71.3677,0 -126.704,25.6711 -165.69,77.173 -39.1457,51.3421 -58.6387,113.017 -58.6387,184.81 0,49.5313 9.00085,95.1747 26.8428,137.037 17.7887,41.8087 43.8326,73.9774 77.8121,96.8257 33.9795,22.7951 73.9774,34.1393 119.994,34.1393 61.1951,0 111.685,-24.9787 151.31,-74.9893l0 64.0179 81.0077 0 0 -448.179c0,-80.8479 -8.1487,-137.995 -24.6591,-171.655 -16.2974,-33.66 -42.5011,-60.343 -77.9719,-79.836 -35.6839,-19.493 -79.5164,-29.346 -131.498,-29.346 -61.8343,0 -111.685,13.8475 -149.712,41.6489 -38.1338,27.6949 -56.455,69.5036 -55.1236,125.373zm72.0068 311.302c0,-67.7993 13.4746,-117.331 40.4772,-148.487 27.1623,-31.1568 60.9821,-46.8151 101.672,-46.8151 40.4772,0 74.3502,15.4985 101.832,46.4955 27.3221,30.997 41.0098,79.6762 41.0098,145.984 0,63.3255 -14.167,111.153 -42.3413,143.321 -28.1743,32.1687 -62.1538,48.1998 -101.832,48.1998 -39.199,0 -72.3264,-15.8713 -99.8615,-47.5075 -27.3221,-31.6894 -40.9565,-78.6643 -40.9565,-141.191z"
       id="path171" /></glyph><glyph
     unicode="4"
     horiz-adv-x="556"
     id="glyph173"><path
       d="M322.993 0l0 171.013 -311.007 0 0 80.9913 327.003 463.999 72.0013 0 0 -463.999 97.0276 0 0 -80.9913 -97.0276 0 0 -171.013 -87.9971 0zm0 252.005l0 322.143 -224.508 -322.143 224.508 0z"
       id="path175" /></glyph><glyph
     unicode="E"
     horiz-adv-x="666"
     id="glyph177"><path
       d="M73.0075 0l0 715.993 529.995 0 0 -120.98 -385.012 0 0 -158.999 358.013 0 0 -121.013 -358.013 0 0 -193.988 398.995 0 0 -121.013 -543.978 0z"
       id="path179" /></glyph><glyph
     unicode="S"
     horiz-adv-x="667"
     id="glyph181"><path
       d="M34.9915 231.998l141.031 14.0072c8.46826,-47.1879 25.458,-81.6468 51.2889,-103.856 25.8308,-22.1559 60.6625,-33.1274 104.548,-33.1274 46.2825,0 81.3272,9.79974 104.815,29.4525 23.4874,19.706 35.311,42.7141 35.311,69.0243 0,16.9898 -5.00639,31.3166 -14.8061,43.3532 -9.853,11.8236 -27.1623,22.1559 -51.8215,30.8372 -16.8833,5.96506 -55.1768,16.2974 -115.2,31.3166 -77.173,19.3332 -131.338,42.9804 -162.495,71.1547 -43.8326,39.5185 -65.6689,87.6651 -65.6689,144.493 0,36.536 10.3323,70.8351 30.8372,102.684 20.6647,31.8492 50.3302,55.9757 89.1564,72.6459 38.8262,16.6702 85.5347,25.032 140.499,25.032 89.5292,0 157.009,-19.8658 202.173,-59.7039 45.3238,-39.8381 69.0243,-92.8313 71.3144,-159.299l-144.972 -5.00639c-6.1781,37.0153 -19.3332,63.4853 -39.5185,79.6762 -20.1321,16.1376 -50.49,24.3396 -90.8074,24.3396 -41.6489,0 -74.3502,-8.6813 -97.8377,-26.0439 -15.179,-11.1312 -22.8483,-25.9906 -22.8483,-44.6314 0,-16.9898 7.19003,-31.5296 21.5168,-43.513 18.1615,-15.4985 62.3136,-31.4764 132.51,-48.1466 70.1427,-16.5104 121.964,-33.873 155.464,-51.5019 33.66,-17.8419 60.0234,-42.0217 79.0371,-72.859 18.9604,-30.8372 28.4938,-68.8112 28.4938,-113.975 0,-41.0098 -11.3443,-79.5164 -34.1926,-115.36 -22.7951,-35.8436 -54.9638,-62.4734 -96.666,-79.836 -41.6489,-17.4691 -93.6302,-26.1504 -155.837,-26.1504 -90.4879,0 -159.991,20.8245 -208.458,62.6864 -48.5194,41.6489 -77.3328,102.471 -86.8662,182.307z"
       id="path183" /></glyph><glyph
     unicode="u"
     horiz-adv-x="556"
     id="glyph185"><path
       d="M404.985 0l0 77.173c-40.3174,-58.8517 -94.9617,-88.1977 -164.146,-88.1977 -30.5177,0 -59.0115,5.85854 -85.4815,17.5224 -26.5232,11.8236 -46.176,26.5232 -59.0115,44.1521 -12.8355,17.8419 -21.8364,39.5185 -27.0026,65.1896 -3.51513,17.3093 -5.32595,44.6847 -5.32595,82.0196l0 321.155 87.9847 0 0 -287.175c0,-45.8564 1.81082,-76.8534 5.32595,-92.6715 5.48573,-23.1679 17.1496,-41.1696 35.1513,-54.3247 17.8419,-13.1551 39.8381,-19.8658 66.2015,-19.8658 26.3102,0 50.9693,6.71069 73.9774,20.1853 23.0081,13.5279 39.3588,32.0089 48.9987,55.1768 9.53345,23.1679 14.3268,56.9876 14.3268,101.14l0 277.535 88.0379 0 0 -519.014 -79.0371 0z"
       id="path187" /></glyph><glyph
     unicode="d"
     horiz-adv-x="556"
     id="glyph189"><path
       d="M400.991 0l0 65.8287c-32.8078,-51.1824 -81.1674,-76.8534 -144.972,-76.8534 -41.3294,0 -79.3566,11.3443 -113.869,34.1926 -34.6719,22.6885 -61.4614,54.4844 -80.6349,95.1747 -19.0136,40.85 -28.4938,87.6651 -28.4938,140.658 0,51.6617 8.62804,98.4768 25.8308,140.658 17.3093,42.0217 43.1402,74.3502 77.6523,96.666 34.3524,22.5288 73.0187,33.66 115.52,33.66 31.3166,0 59.118,-6.65744 83.4576,-19.8125 24.3396,-13.1551 44.2054,-30.5177 59.5441,-51.6617l0 257.51 87.9847 0 0 -716.02 -82.0196 0zm-278.014 258.841c0,-66.3613 14.0072,-115.839 42.1815,-148.7 28.0145,-32.8078 61.1951,-49.1585 99.3289,-49.1585 38.5066,0 71.1547,15.6583 98.1572,47.0281 26.8428,31.3166 40.3707,79.1436 40.3707,143.481 0,70.6753 -13.6877,122.657 -41.1696,155.837 -27.3221,33.1807 -61.1951,49.6911 -101.353,49.6911 -39.1457,0 -71.847,-15.8713 -98.1572,-47.6672 -26.1504,-31.8492 -39.3588,-82.0196 -39.3588,-150.511z"
       id="path191" /></glyph><glyph
     unicode="1"
     horiz-adv-x="556"
     id="glyph193"><path
       d="M371.993 0l-87.9971 0 0 560.339c-21.1792,-20.3288 -48.9998,-40.4957 -83.3401,-60.6625 -34.3403,-20.1668 -65.3195,-35.3527 -92.6541,-45.3551l0 85.0004c49.1617,23.0015 92.1681,51.0245 128.979,84.0285 36.8511,32.8015 63.0113,64.6311 78.3591,95.6508l56.6534 0 0 -719.001z"
       id="path195" /></glyph><glyph
     unicode=" "
     horiz-adv-x="277"
     id="glyph197" /><glyph
     unicode="B"
     horiz-adv-x="722"
     id="glyph199"><path
       d="M73.0075 715.993l286.337 0c56.828,0 98.9746,-2.33038 126.806,-6.99114 28.0312,-4.82722 52.8331,-14.6814 74.8385,-29.496 22.0055,-15.0143 40.3489,-34.8558 54.997,-59.6578 14.6814,-24.8352 22.0055,-52.8331 22.0055,-83.694 0,-33.3245 -8.98861,-64.1521 -26.9991,-91.9835 -17.9772,-27.9979 -42.4795,-48.8381 -73.3404,-62.8537 43.5116,-12.8171 76.836,-34.4896 100.34,-65.1508 23.3371,-30.6612 35.0223,-66.6822 35.0223,-108.163 0,-32.6586 -7.5238,-64.3518 -22.6713,-95.1794 -15.1808,-30.8276 -35.8546,-55.4964 -62.1879,-74.0063 -26.1669,-18.3101 -58.4926,-29.6624 -96.9772,-33.9903 -24.0029,-2.49684 -82.1626,-4.1614 -174.346,-4.82722l-243.824 0 0 715.993zm144.983 -118.983l0 -165.024 94.6801 0c56.1622,0 91.1512,0.832279 104.834,2.53013 24.6688,2.82975 44.1774,11.319 58.3261,25.4677 14.182,14.182 21.1732,32.6919 21.1732,55.6961 0,22.1386 -6.15887,39.9827 -18.3434,53.8318 -12.1513,13.8158 -30.3283,22.1386 -54.3312,25.0017 -14.3152,1.66456 -55.4964,2.49684 -123.344,2.49684l-82.9949 0zm0 -284.007l0 -191.99 133.997 0c52.0008,0 85.1921,1.4981 99.1744,4.32785 21.5061,3.99494 39.0172,13.4829 52.5002,28.6637 13.5162,15.3139 20.3409,35.4884 20.3409,60.9894 0,21.6725 -5.16013,39.8495 -15.6801,54.8305 -10.3203,15.0143 -25.501,26.0004 -45.1428,32.8584 -19.6751,6.82469 -62.5208,10.3203 -128.337,10.3203l-116.852 0z"
       id="path201" /></glyph><glyph
     unicode="r"
     horiz-adv-x="389"
     id="glyph203"><path
       d="M203.025 0l-137.037 0 0 519.014 127.024 0 0 -73.6579c21.8364,34.8317 41.4891,57.6268 59.0115,68.4917 17.4691,10.8117 37.3349,16.1376 59.4908,16.1376 31.3166,0 61.4614,-8.62804 90.4879,-25.8308l-42.5011 -119.674c-23.1679,15.0192 -44.6847,22.5288 -64.4972,22.5288 -19.3332,0 -35.6839,-5.32595 -48.9987,-15.8181 -13.3149,-10.7052 -23.8602,-29.6655 -31.5296,-57.3605 -7.61611,-27.6417 -11.4508,-85.6412 -11.4508,-173.839l0 -159.991z"
       id="path205" /></glyph><glyph
     unicode="."
     horiz-adv-x="277"
     id="glyph207"><path
       d="M90.9938 0l0 99.9838 100.024 0 0 -99.9838 -100.024 0z"
       id="path209" /></glyph><glyph
     unicode="a"
     horiz-adv-x="556"
     id="glyph211"><path
       d="M404.997 64.9955c-32.68,-27.8205 -64.1451,-47.3394 -94.3144,-58.8402 -30.1693,-11.5008 -62.5253,-17.1702 -97.1896,-17.1702 -56.9774,0 -100.834,13.8495 -131.489,41.67 -30.6552,27.6585 -46.0031,63.1732 -46.0031,106.342 0,25.3503 5.83138,48.5138 17.3321,69.4906 11.6628,21.0173 26.8486,37.661 45.5171,50.3361 18.8305,12.6751 39.8072,22.3536 63.3352,28.8329 17.3321,4.49502 43.4923,8.82806 78.3186,13.1611 70.9889,8.34211 123.512,18.5065 157.002,30.1693 0.323965,12.0272 0.485948,19.6809 0.485948,22.8396 0,35.6767 -8.34211,60.8245 -24.9858,75.5244 -22.5156,19.8024 -56.0055,29.6428 -100.348,29.6428 -41.5081,0 -72.1633,-7.32972 -91.8442,-21.8272 -19.8024,-14.4974 -34.2998,-40.1717 -43.8163,-77.1847l-86.0128 12.0272c7.85616,36.8106 20.6933,66.6559 38.6734,89.3334 18.0206,22.6776 44.0188,40.0097 77.9947,52.3204 33.8544,12.1892 73.3377,18.3445 118.004,18.3445 44.3428,0 80.5054,-5.18345 108.326,-15.6718 27.699,-10.4884 48.1898,-23.4875 61.189,-39.3213 12.9991,-15.8338 22.1511,-35.8387 27.4966,-60.0146 2.8347,-14.9834 4.33304,-41.994 4.33304,-80.8294l0 -116.668c0,-81.5178 1.82231,-132.988 5.50741,-154.855 3.48263,-21.8272 10.8123,-42.6419 21.5032,-62.6468l-92.0062 0c-8.82806,18.5065 -14.4974,40.1717 -17.0082,64.9955zm-7.00575 194.987c-31.9916,-12.9991 -79.9789,-23.9734 -144.003,-32.9635 -36.3246,-5.18345 -61.9989,-11.0148 -76.9823,-17.5346 -15.0239,-6.47931 -26.5247,-15.9958 -34.6643,-28.3065 -8.18012,-12.5132 -12.3512,-26.3627 -12.3512,-41.67 0,-23.1635 8.82806,-42.6824 26.6866,-58.1923 17.8181,-15.4693 43.8163,-23.3255 77.9947,-23.3255 33.8139,0 63.9832,7.32972 90.5078,22.1916 26.3222,14.6594 45.8006,34.8263 58.1518,60.3385 9.51648,19.8024 14.1735,48.9998 14.1735,87.4706l0.485948 31.9916z"
       id="path213" /></glyph><glyph
     unicode="P"
     horiz-adv-x="666"
     id="glyph215"><path
       d="M73.0075 0l0 715.993 231.84 0c87.8221,0 144.983,-3.49557 171.649,-10.6532 41.0147,-10.8529 75.3379,-34.1567 103.003,-70.1778 27.665,-35.9877 41.5141,-82.4955 41.5141,-139.49 0,-44.0109 -8.02317,-80.8309 -23.8365,-110.826 -16.0131,-30.0286 -36.1875,-53.4989 -60.6898,-70.6771 -24.5023,-17.0118 -49.4707,-28.3308 -74.8052,-33.8238 -34.5229,-6.85798 -84.3598,-10.3536 -149.677,-10.3536l-94.0142 0 0 -269.991 -144.983 0zm144.983 595.013l0 -204.008 78.8335 0c56.828,0 94.6801,3.82848 113.856,11.319 19.1424,7.5238 34.1567,19.1757 44.9764,35.3552 10.8529,15.9798 16.346,34.4896 16.346,55.8293 0,26.1669 -7.65697,47.6729 -22.8377,64.6514 -15.3472,17.0118 -34.4896,27.665 -57.9932,31.9928 -17.1782,3.19595 -51.6679,4.86051 -103.669,4.86051l-69.512 0z"
       id="path217" /></glyph><glyph
     unicode="+"
     horiz-adv-x="583"
     id="glyph219"><path
       d="M250.992 116.02l0 195.999 -194.987 0 0 81.9632 194.987 0 0 195.027 83.0161 0 0 -195.027 194.987 0 0 -81.9632 -194.987 0 0 -195.999 -83.0161 0z"
       id="path221" /></glyph><glyph
     unicode="M"
     horiz-adv-x="832"
     id="glyph223"><path
       d="M74.998 0l0 716.004 142.018 0 169.312 -506.844c15.6718,-47.1775 27.0106,-82.4897 34.1783,-105.977 8.13963,25.9982 20.9768,64.3071 38.3089,114.805l172.35 498.016 126.832 0 0 -716.004 -90.9938 0 0 599.012 -208.998 -599.012 -85.3244 0 -206.69 609.986 0 -609.986 -90.9938 0z"
       id="path225" /></glyph><glyph
     unicode="o"
     horiz-adv-x="556"
     id="glyph227"><path
       d="M33.004 259.496c0,95.8532 26.6461,166.842 80.1814,213.007 44.4642,38.3494 98.9714,57.5038 163.157,57.5038 71.1509,0 129.505,-23.3255 174.82,-70.017 45.1527,-46.489 67.8302,-110.999 67.8302,-193.164 0,-66.6559 -10.0024,-118.976 -30.0073,-157.164 -20.0049,-38.1469 -49.1617,-67.8302 -87.4706,-89.0095 -38.1874,-21.1387 -80.0194,-31.6676 -125.172,-31.6676 -72.6897,0 -131.327,23.1635 -176.156,69.693 -44.8692,46.489 -67.1823,113.469 -67.1823,200.818zm89.9814 -0.161983c0,-66.3319 14.4974,-116.02 43.5328,-148.822 29.1569,-33.004 65.6435,-49.5262 109.824,-49.5262 43.6543,0 79.9789,16.5222 109.176,49.6882 28.9949,33.166 43.4923,83.664 43.4923,151.494 0,63.9832 -14.6594,112.497 -43.8568,145.339 -29.1569,33.004 -65.4815,49.4857 -108.812,49.4857 -44.1808,0 -80.6674,-16.3198 -109.824,-49.1617 -29.0354,-32.842 -43.5328,-82.3277 -43.5328,-148.498z"
       id="path229" /></glyph><glyph
     unicode="9"
     horiz-adv-x="556"
     id="glyph231"><path
       d="M54.9931 165.992l83.988 7.00575c7.16773,-39.6453 20.8553,-68.3162 41.0221,-86.1748 20.1668,-17.8181 46.0031,-26.8081 77.6707,-26.8081 27.0106,0 50.6601,6.15534 71.1509,18.6685 20.4908,12.3107 37.175,28.8329 50.0121,49.6477 12.8371,20.6528 23.6495,48.6758 32.4775,83.826 8.86855,35.1907 13.2016,71.0294 13.2016,107.516 0,3.84709 -0.202478,9.84045 -0.526444,17.6561 -17.4941,-27.9825 -41.5081,-50.8221 -71.8393,-68.1542 -30.3313,-17.4941 -63.3352,-26.1602 -98.6474,-26.1602 -59.1642,0 -109.176,21.5032 -150.158,64.4691 -40.8601,42.8444 -61.3509,99.4979 -61.3509,169.839 0,72.6897 21.3412,131.003 64.1856,175.346 42.6419,44.1808 96.1367,66.3319 160.646,66.3319 46.327,0 88.8475,-12.5132 127.521,-37.661 38.4709,-25.0263 67.6683,-60.6625 87.6731,-107.192 19.9644,-46.327 29.9668,-113.469 29.9668,-201.304 0,-91.5202 -9.79995,-164.331 -29.6428,-218.515 -19.8429,-54.3452 -49.5262,-95.4888 -88.6855,-123.836 -39.1593,-28.3065 -85.0004,-42.48 -137.645,-42.48 -56.0055,0 -101.685,15.4693 -137.199,46.651 -35.3122,31.1817 -56.6534,74.998 -63.8212,131.327zm358.994 315.826c0,50.3361 -13.3231,90.3458 -39.9692,119.867 -26.5247,29.4808 -58.8402,44.3023 -96.8656,44.3023 -39.3213,0 -73.3377,-15.8338 -101.968,-47.6634 -28.8329,-31.8296 -43.1684,-73.1757 -43.1684,-123.836 0,-45.4766 13.647,-82.4897 40.8196,-110.837 27.3346,-28.4685 61.3509,-42.6419 101.847,-42.6419 40.6576,0 73.9856,14.1735 100.146,42.6419 26.1602,28.347 39.1593,67.8302 39.1593,118.166z"
       id="path233" /></glyph><glyph
     unicode="l"
     horiz-adv-x="222"
     id="glyph235"><path
       d="M63.9832 0l0 716.004 87.9971 0 0 -716.004 -87.9971 0z"
       id="path237" /></glyph><glyph
     unicode="J"
     horiz-adv-x="556"
     id="glyph239"><path
       d="M330.015 715.993l144.983 0 0 -453.659c0,-59.3249 -5.16013,-105 -15.6801,-136.993 -13.9823,-41.6805 -39.3169,-75.1714 -76.1369,-100.506 -36.6869,-25.1681 -85.1921,-37.8188 -145.516,-37.8188 -70.6771,0 -125.008,19.6418 -162.994,59.1584 -38.185,39.4833 -57.3274,97.4765 -57.6603,173.813l136.993 16.0131c1.66456,-40.8483 7.49051,-69.6784 17.8441,-86.4904 15.4804,-25.6675 38.984,-38.5179 70.6439,-38.5179 31.8264,0 54.4976,9.18836 67.6809,27.665 13.15,18.3434 19.8415,56.4951 19.8415,114.522l0 462.814z"
       id="path241" /></glyph><glyph
     unicode="z"
     horiz-adv-x="500"
     id="glyph243"><path
       d="M19.4863 0l0 71.6424 328.694 379.379c-37.3444,-1.9959 -70.1718,-3.04638 -98.5346,-3.04638l-210.148 0 0 71.0121 423.026 0 0 -57.8287 -281.37 -329.009 -53.8369 -61.1377c39.4979,3.309 76.5271,4.98976 111.035,4.98976l240.139 0 0 -76.0019 -459.005 0z"
       id="path245" /></glyph><glyph
     unicode="G"
     horiz-adv-x="777"
     id="glyph247"><path
       d="M405.997 262.995l0 121.006 310.982 0 0 -285.684c-30.1449,-29.5058 -73.9774,-55.3366 -131.498,-77.8121 -57.3072,-22.3157 -115.467,-33.5002 -174.478,-33.5002 -74.8296,0 -140.019,15.6583 -195.675,47.1879 -55.4964,31.4764 -97.3051,76.6404 -125.32,135.119 -28.0145,58.5322 -42.0217,122.337 -42.0217,191.202 0,74.6698 15.6583,140.978 46.8683,199.137 31.3166,57.9996 76.9599,102.684 137.143,133.681 46.0162,23.8602 103.004,35.6839 171.336,35.6839 88.8368,0 158.34,-18.6941 208.351,-56.029 49.7976,-37.4947 81.9663,-88.9966 96.2931,-154.985l-143.96 -27.0026c-10.0128,35.1513 -29.0264,63.006 -56.8279,83.5109 -27.6949,20.3451 -62.3669,30.4644 -104.016,30.4644 -63.006,0 -113.176,-19.9723 -150.352,-60.13 -37.1751,-40.1576 -55.8159,-99.7017 -55.8159,-178.526 0,-85.1619 18.8006,-148.967 56.5083,-191.468 37.8142,-42.5011 87.1325,-63.8581 148.328,-63.8581 30.1449,0 60.5028,6.01832 90.8074,17.8419 30.5177,11.8236 56.5083,26.3102 78.3447,43.3532l0 90.8074 -164.998 0z"
       id="path249" /></glyph><glyph
     unicode="6"
     horiz-adv-x="556"
     id="glyph251"><path
       d="M498.988 540.982l-86.9847 -6.96525c-7.85616,34.5023 -18.9925,59.6501 -33.4899,75.3219 -23.8519,25.1478 -53.3328,37.661 -88.3615,37.661 -28.1445,0 -53.1708,-7.81566 -74.6335,-23.4875 -27.699,-20.1668 -49.3642,-49.5262 -65.522,-88.1591 -15.9958,-38.8353 -24.3379,-94.0309 -24.9858,-165.506 21.1387,32.1536 47.137,56.1675 77.8327,71.6368 30.6552,15.6718 62.6468,23.528 96.3392,23.528 58.6377,0 108.65,-21.6652 149.996,-64.8336 41.1436,-43.1684 61.8369,-98.8499 61.8369,-167.328 0,-45.0312 -9.67846,-86.7012 -28.9949,-125.334 -19.5189,-38.6734 -46.0031,-68.1947 -80.0194,-88.6855 -33.8139,-20.4908 -72.3253,-30.8172 -115.332,-30.8172 -73.1757,0 -132.988,26.9701 -179.355,80.8294 -46.1651,53.8187 -69.3286,142.666 -69.3286,266.34 0,138.333 25.6743,238.965 76.8608,301.814 44.6667,54.6692 104.803,82.0037 180.651,82.0037 56.3295,0 102.657,-15.8338 138.657,-47.3394 36.0006,-31.5056 57.6658,-74.998 64.8336,-130.68zm-360.006 -308.982c0,-30.3313 6.5198,-59.3262 19.3569,-86.9847 12.8371,-27.699 30.8172,-48.6758 53.6568,-63.1732 23.0015,-14.4974 47.3394,-21.8272 73.1757,-21.8272 37.499,0 69.4906,14.9834 96.0152,44.9907 26.4842,30.0073 39.8072,70.6649 39.8072,122.175 0,49.4857 -13.1611,88.483 -39.3213,116.992 -26.1602,28.5089 -59.4881,42.8444 -100.024,42.8444 -39.6453,0 -73.4996,-14.3355 -101.158,-42.8444 -27.6585,-28.5089 -41.5081,-65.846 -41.5081,-112.173z"
       id="path253" /></glyph><glyph
     unicode="i"
     horiz-adv-x="222"
     id="glyph255"><path
       d="M66.0079 616.02l0 99.9838 87.9971 0 0 -99.9838 -87.9971 0zm0 -616.02l0 518.992 87.9971 0 0 -518.992 -87.9971 0z"
       id="path257" /></glyph></font>
</defs>
</svg>
